原生系统
一派掌门

[2022] [大陆] [奇幻] [纯净版] [BT下载][龙云镇怪谈][WEB-MKV/1.86G][国语中英双字][4K][Vampire][HDR.10bit普码版]

-->


◎译  名 Tales of Longyun Town

◎片  名 龙云镇怪谈

◎年  代 2022

◎产  地 中国大陆

◎类  别 动作 / 奇幻

◎语  言 汉语普通话

◎上映日期 2022-01-20(中国大陆)

◎豆瓣评分 4.9/10 from 900 users

◎豆瓣链接 https://movie.douban.com/subject/35295334

◎编  剧 崔走召 Zouzhao Cui

◎主  演 钱小豪 Siu-hou Chin

       庞景峰 Andrew Pong

       罗佩 Jie Luo

       韩锐 Rui Han

       郭东海 Donghai Guo


◎简  介


  民国初年,各方军阀混战,民不聊生。故事发生在一个名叫‘龙云镇’的地方,话说自打相传镇子旁发现了一处宝藏之后,镇里便逐渐开始怪事不断,接连出现少女在家中被杀。据说宝藏是前朝一个自称‘千宝王’的叛军首领当年为了谋反所埋藏的金银珠宝,镇长和军阀派人看守着宝藏。这宝藏的消息却招引了各路心怀不轨的江湖人士纷至沓来,龙云镇这个小地方被一出出夺宝的阴谋所笼罩。



General


Complete name               : 龙云镇怪谈.Tales.of.Longyun.Town.2022.4K.WEB-DL.H265.HDR.10bit.AAC-Vampire.mkv

Format                      : Matroska

Format version              : Version 4

File size                   : 1.86 GiB

Duration                    : 1 h 13 min

Overall bit rate            : 3 649 kb/s

Movie name                  : 龙云镇怪谈.Tales.of.Longyun.Town.2022.4K.WEB-DL.H265.HDR.10bit.AAC-Vampire


Video

ID                          : 1

Format                      : HEVC

Format/Info                 : High Efficiency Video Coding

Format profile              : Main [email protected]@Main

HDR format                  : SMPTE ST 2086, HDR10 compatible

Codec ID                    : V_MPEGH/ISO/HEVC

Duration                    : 1 h 13 min

Bit rate                    : 3 455 kb/s

Width                       : 3 840 pixels

Height                      : 1 440 pixels

Display aspect ratio        : 2.667

Frame rate mode             : Constant

Frame rate                  : 24.000 FPS

Color space                 : YUV

Chroma subsampling          : 4:2:0

Bit depth                   : 10 bits

Bits/(Pixel*Frame)          : 0.026

Stream size                 : 1.76 GiB (95%)

Title                       : Vampire制作分享作品

Language                    : Chinese

Default                     : Yes

Forced                      : No

Color range                 : Limited

Color primaries             : BT.2020

Transfer characteristics    : PQ

Matrix coefficients         : BT.2020 non-constant

Mastering display color pri : R: x=0.708000 y=0.292000, G: x=0.170000 y=0.797000, B: x=0.130000 y=0.046000, White point: x=0.312700 y=0.329000

Mastering display luminance : min: 0.0001 cd/m2, max: 1000 cd/m2

Maximum Content Light Level : 297 cd/m2

Maximum Frame-Average Light : 13 cd/m2


Audio

ID                          : 2

Format                      : AAC LC

Format/Info                 : Advanced Audio Codec Low Complexity

Codec ID                    : A_AAC-2

Duration                    : 1 h 13 min

Bit rate                    : 192 kb/s

Channel(s)                  : 2 channels

Channel layout              : L R

Sampling rate               : 44.1 kHz

Frame rate                  : 43.066 FPS (1024 SPF)

Compression mode            : Lossy

Stream size                 : 99.3 MiB (5%)

Title                       : 汉语普通话

Language                    : Chinese

Default                     : Yes

Forced                      : No


本人发布的种子请使用专业BT下载工具:

UT,Bitcomet,qBittorrent,Xdown开启上传后再下载!!!

使用迅雷或网盘离线可能会没速度!!!


视频的网盘资源均在视频后缀(如mp4或mkv)后又跟随了.xy(mp4.xy或mkv.xy)用以混淆官方视听!
并且加密了文件名,设置了独有的解压密码,请使用WinRAR解压,使用好压或其他可能会出错!
已完结剧集不再分集打包上传,整体打包后分卷,无法单独下载某一集,需要全部下载后一起解压,敬请知晓!
请各位下载的坛友先保存至自己的网盘,然后再进行下载!!!
不要直接在线观看或者解压,否则会很快被网盘官方发觉并和谐!


阿里云盘后缀名凡是“PDF”的,请在下载完成后将后缀名“PDF”修改为“rar”,即可正常解压,观看!

目前阿里云盘上传和下载均不限速,趁着这段“免费VIP”的时间,就暂时放弃度盘吧!


请下载完成的朋友自觉做种一段时间,小水管出种不易,且下且珍惜,谢谢!!!


解压请使用官方原版WinRAR,使用破解版或者好压等软件可能会出错,感谢所有赞赏的朋友!!!


1 个附件 售价 大小 下载 时间

龙云镇怪谈.Tales.of.Longyun.Town.2022.4K.WEB-DL.H265.HDR.10bit.AAC-Vampire.rar 0 金币 1.23M 31507 次 3月前

#1楼
发帖时间:2022-01-24 23:45:28   |   回复数:10
liyouchai
隐世仙人♂
谢谢楼主分享资源
3月前 #2楼
coolxlf
武林高手
感谢分享
3月前 #3楼
cqhy1983
武林盟主
感谢分享!!!!!!!!
3月前 #4楼
alex952788
一派掌门
感谢分享
3月前 #5楼
ALLEN820213
隐世仙人♂
感谢楼主分享 !!!
3月前 #6楼
大聖
武林高手
原来 又是崔走召的编剧,, 哎,什么时候能把 我当阴阳先生的那几年 拍成电影就好了
3月前 #7楼
ak147
超凡入圣№
感谢大大分享
3月前 #8楼
coolxlf
武林高手
感谢分享
3月前 #9楼
zero_cwl
一代宗师
感谢楼主无私分享资源!
3月前 #10楼
yls
武林盟主
龙云镇怪谈 - 2022.WEB.4K.国语中字.[MKV 1.86G]
谢楼主分享
3月前 #11楼
游客组