travismk
一代宗师

[2020] [欧美] [剧情] [BD-4K] 大凶/大凶险 The.Big.Ugly.2020.2160p.BluRay.x265.10bit.SDR.DTS-HD.MA.5.1-SWTYBLZ 20.48

-->

帖子完整标题:大凶/大凶险 The.Big.Ugly.2020.2160p.BluRay.x265.10bit.SDR.DTS-HD.MA.5.1-SWTYBLZ 20.48GB



◎译  名 大凶/大凶险
◎片  名 The Big Ugly
◎年  代 2020
◎产  地 美国
◎类  别 剧情
◎语  言 英语
◎上映日期 2020-07-24(美国)
◎豆瓣评分 4.4/10 from 116 users
◎豆瓣链接 https://movie.douban.com/subject/34938666/
◎片  长 106分钟
◎导  演 斯科特·维普 Scott Wiper
◎编  剧 斯科特·维普 Scott Wiper / 保罗·塔伦蒂诺 Paul Tarantino
◎主  演 朗·普尔曼 Ron Perlman
      维尼·琼斯 Vinnie Jones
      马尔科姆·麦克道威尔 Malcolm McDowell
      尼可拉斯·博朗 Nicholas Braun
      莱文·兰宾 Leven Rambin
      伊利斯·莱韦斯克 Elyse Levesque
      丹尼尔·布兰 Daniel Buran
      勒诺拉·克里奇洛 Lenora Crichlow
      乔丽·卡特 Joelle Carter
      布鲁斯·麦克吉尔 Bruce McGill
      马克·史密斯 Mark Rhino Smith

◎标  签 复仇 | 犯罪 | 美国 | 2020 | 黑帮 | 剧情 | 美国电影 | 英国

◎简  介

  当伦敦黑帮头目投资西弗吉尼亚州的石油交易以期洗黑钱时,英裔美国人的关系恶化了。

Video
ID : 1
Format : HEVC
Format/Info : High Efficiency Video Coding
Format profile : Main [email protected]@High
Codec ID : V_MPEGH/ISO/HEVC
Duration : 1 h 46 min
Bit rate : 24.8 Mb/s
Width : 3 840 pixels
Height : 1 606 pixels
Display aspect ratio : 2.40:1
Frame rate mode : Constant
Frame rate : 23.976 (24000/1001/189150) FPS
Color space : YUV
Chroma subsampling : 4:2:0
Bit depth : 10 bits
Bits/(Pixel*Frame) : 0.168
Stream size : 18.5 GiB (91%)
Writing library : x265 3.0ed72af837053:[Windows][GCC 8.2.0][64 bit] 10bit
Encoding settings : cpuid=1111039 / frame-threads=6 / numa-pools=40 / wpp / no-pmode / no-pme / no-psnr / no-ssim / log-level=2 / input-csp=1 / input-res=3840x1606 / interlace=0 / total-frames=153333 / level-idc=51 / high-tier=1 / uhd-bd=0 / ref=3 / no-allow-non-conformance / repeat-headers / annexb / aud / hrd / info / hash=0 / no-temporal-layers / no-open-gop / min-keyint=1 / keyint=24 / gop-lookahead=0 / bframes=4 / b-adapt=2 / b-pyramid / bframe-bias=0 / rc-lookahead=25 / lookahead-slices=4 / scenecut=40 / radl=0 / no-splice / no-intra-refresh / ctu=64 / min-cu-size=8 / no-rect / no-amp / max-tu-size=32 / tu-inter-depth=1 / tu-intra-depth=1 / limit-tu=0 / rdoq-level=0 / dynamic-rd=0.00 / no-ssim-rd / signhide / no-tskip / nr-intra=0 / nr-inter=0 / no-constrained-intra / strong-intra-smoothing / max-merge=2 / limit-refs=3 / no-limit-modes / me=1 / subme=2 / merange=57 / temporal-mvp / weightp / no-weightb / no-analyze-src-pics / deblock=0:0 / no-sao / no-sao-non-deblock / rd=3 / no-early-skip / rskip / no-fast-intra / no-tskip-fast / no-cu-lossless / no-b-intra / no-splitrd-skip / rdpenalty=0 / psy-rd=2.00 / psy-rdoq=0.00 / no-rd-refine / no-lossless / cbqpoffs=0 / crqpoffs=0 / rc=crf / crf=16.0 / qcomp=0.60 / qpstep=4 / stats-write=0 / stats-read=0 / vbv-maxrate=160000 / vbv-bufsize=160000 / vbv-init=0.9 / crf-max=0.0 / crf-min=0.0 / ipratio=1.40 / pbratio=1.30 / aq-mode=1 / aq-strength=1.00 / cutree / zone-count=0 / no-strict-cbr / qg-size=32 / no-rc-grain / qpmax=69 / qpmin=0 / no-const-vbv / sar=1 / overscan=0 / videoformat=5 / range=0 / colorprim=2 / transfer=2 / colormatrix=2 / chromaloc=0 / display-window=0 / max-cll=0,0 / min-luma=0 / max-luma=1023 / log2-max-poc-lsb=8 / vui-timing-info / vui-hrd-info / slices=1 / opt-qp-pps / opt-ref-list-length-pps / no-multi-pass-opt-rps / scenecut-bias=0.05 / no-opt-cu-delta-qp / no-aq-motion / no-hdr / no-hdr-opt / no-dhdr10-opt / no-idr-recovery-sei / analysis-reuse-level=5 / scale-factor=0 / refine-intra=0 / refine-inter=0 / refine-mv=0 / refine-ctu-distortion=0 / no-limit-sao / ctu-info=0 / no-lowpass-dct / refine-analysis-type=0 / copy-pic=1 / max-ausize-factor=1.0 / no-dynamic-refine / no-single-sei / no-hevc-aq / qp-adaptation-range=1.00
Default : Yes
Forced : No

Audio #1
ID : 2
ID in the original source medium : 4353 (0x1101)
Format : DTS XLL
Format/Info : Digital Theater Systems
Commercial name : DTS-HD Master Audio
Codec ID : A_DTS
Duration : 1 h 46 min
Bit rate mode : Variable
Bit rate : 1 839 kb/s
Channel(s) : 6 channels
Channel layout : C L R Ls Rs LFE
Sampling rate : 48.0 kHz
Frame rate : 93.750 FPS (512 SPF)
Bit depth : 16 bits
Compression mode : Lossless
Stream size : 1.37 GiB (7%)
Title : DTS-HD MA 5.1
Language : English
Default : Yes
Forced : No
Original source medium : Blu-ray

Audio #2
ID : 3
Format : AC-3
Format/Info : Audio Coding 3
Commercial name : Dolby Digital
Codec ID : A_AC3
Duration : 1 h 46 min
Bit rate mode : Constant
Bit rate : 640 kb/s
Channel(s) : 6 channels
Channel layout : L R C LFE Ls Rs
Sampling rate : 48.0 kHz
Frame rate : 31.250 FPS (1536 SPF)
Compression mode : Lossy
Stream size : 488 MiB (2%)
Title : DD 5.1
Language : English
Service kind : Complete Main
Default : No
Forced : No

Text #1
ID : 4
Format : UTF-8
Codec ID : S_TEXT/UTF8
Codec ID/Info : UTF-8 Plain Text
Duration : 1 h 44 min
Bit rate : 44 b/s
Count of elements : 1220
Stream size : 34.0 KiB (0%)
Title : SRT
Language : English
Default : Yes
Forced : No

Text #2
ID : 5
ID in the original source medium : 4768 (0x12A0)
Format : PGS
Muxing mode : zlib
Codec ID : S_HDMV/PGS
Codec ID/Info : Picture based subtitle format used on BDs/HD-DVDs
Duration : 1 h 39 min
Bit rate : 28.2 kb/s
Count of elements : 1858
Stream size : 20.2 MiB (0%)
Language : German
Default : No
Forced : No
Original source medium : Blu-ray

Menu
00:00:00.000 : Chapter 01
00:08:59.247 : Chapter 02
00:16:15.599 : Chapter 03
00:25:06.963 : Chapter 04
00:32:19.938 : Chapter 05
00:41:15.139 : Chapter 06
00:48:56.642 : Chapter 07
00:59:44.914 : Chapter 08
01:05:34.305 : Chapter 09
01:13:00.334 : Chapter 10
01:20:51.972 : Chapter 11
01:29:51.677 : Chapter 12
01:46:24.336 : Chapter 13





1 个附件 售价 大小 下载 时间

The.Big.Ugly.2020.2160p.BluRay.x265.10bit.SDR.DTS-HD.MA.5.1-SWTYBLZ.torrent 0 金币 51.92K 3941 次 1月前

#1楼
发帖时间:2021-06-13 20:29:05   |   回复数:0
游客组