fg603603
武林盟主

[2020] [欧美] [其他] [WEB-1080P] 波士顿市政厅 City.Hall.2020.1080p.AMZN.WEBRip.DDP2.0.x264-NOGRP 18.43GB

-->

帖子完整标题:波士顿市政厅 City.Hall.2020.1080p.AMZN.WEBRip.DDP2.0.x264-NOGRP 18.43GB



◎译  名 波士顿市政厅/Boston City Hall
◎片  名 City Hall
◎年  代 2020
◎产  地 美国
◎类  别 纪录片
◎语  言 英语
◎上映日期 2020-09-08(威尼斯电影节) / 2020-09-14(多伦多电影节)
◎豆瓣评分 8.0/10 from 916 users
◎豆瓣链接 https://movie.douban.com/subject/35027717/
◎片  长 275分钟
◎导  演 弗雷德里克·怀斯曼 Frederick Wiseman
◎编  剧 弗雷德里克·怀斯曼 Frederick Wiseman

◎标  签 纪录片 | 美国 | 政治 | 社会 | 2020 | 怀斯曼 | FrederickWiseman | 电影

◎简  介

  刚在元旦度过91岁生日的弗雷德里克· 怀斯曼(Frederick Wiseman)在长达275分钟的新作中,为我们呈现了一幅以波士顿市政厅为起点的美国画卷——关于市长、政府运作、民主的细节与困境。
  
  这部被法国《电影手册》列为“2020年度十佳影片”之首的纪录片,拍摄于2018年秋和2019年冬,如同一颗时间胶囊,更像是部政治预言。

◎获奖情况

  第45届多伦多国际电影节 ?(2020)
  观众选择奖纪录片单元(提名)
  
  第30届哥谭独立电影奖 ?(2020)
  最佳纪录片(提名)
  
  第55届美国国家影评人协会奖 ?(2021)
  最佳纪录片(提名)

Video
ID : 1
Format : AVC
Format/Info : Advanced Video Codec
Format profile : [email protected]
Format settings : CABAC / 4 Ref Frames
Format settings, CABAC : Yes
Format settings, Reference frames : 4 frames
Codec ID : V_MPEG4/ISO/AVC
Duration : 4 h 34 min
Bit rate mode : Constant
Bit rate : 9 192 kb/s
Nominal bit rate : 10 000 kb/s
Width : 1 920 pixels
Height : 1 080 pixels
Display aspect ratio : 16:9
Frame rate mode : Constant
Frame rate : 24.000 FPS
Color space : YUV
Chroma subsampling : 4:2:0
Bit depth : 8 bits
Scan type : Progressive
Bits/(Pixel*Frame) : 0.185
Stream size : 17.6 GiB (96%)
Default : Yes
Forced : No
Color range : Limited
Color primaries : BT.709
Transfer characteristics : BT.709
Matrix coefficients : BT.709

Audio
ID : 2
Format : E-AC-3
Format/Info : Enhanced AC-3
Commercial name : Dolby Digital Plus
Codec ID : A_EAC3
Duration : 4 h 34 min
Bit rate mode : Constant
Bit rate : 224 kb/s
Channel(s) : 2 channels
Channel layout : L R
Sampling rate : 48.0 kHz
Frame rate : 31.250 FPS (1536 SPF)
Compression mode : Lossy
Stream size : 440 MiB (2%)
Language : English
Service kind : Complete Main
Default : Yes
Forced : No

Text #1
ID : 3
Format : UTF-8
Codec ID : S_TEXT/UTF8
Codec ID/Info : UTF-8 Plain Text
Title : English (SDH)
Language : English
Default : No
Forced : No

Text #2
ID : 4
Format : UTF-8
Codec ID : S_TEXT/UTF8
Codec ID/Info : UTF-8 Plain Text
Title : English
Language : English
Default : No
Forced : No





1 个附件 售价 大小 下载 时间

City.Hall.2020.1080p.AMZN.WEBRip.DDP2.0.x264-NOGRP.torrent 0 金币 92.78K 532 次 1月前

#1楼
发帖时间:2021-06-13 19:08:52   |   回复数:0
游客组