fg603603
武林盟主

[更 早] [其他] [喜剧] [WEB-1080P] 小邮件 Piccola.Posta.1955.ITALIAN.1080p.AMZN.WEBRip.DD2.0.x264-SbR 6.72GB

-->

帖子完整标题:小邮件 Piccola.Posta.1955.ITALIAN.1080p.AMZN.WEBRip.DD2.0.x264-SbR 6.72GB



◎译  名 小邮件
◎片  名 Piccola posta
◎年  代 1955
◎产  地 意大利
◎类  别 喜剧
◎语  言 意大利语
◎上映日期 1955
◎豆瓣评分 /10 from 0 users
◎豆瓣链接 https://movie.douban.com/subject/5061794/
◎片  长 99分钟
◎导  演 斯特诺 Steno
◎编  剧 桑德罗·孔蒂嫩扎 Sandro Continenza / 卢西奥·弗尔兹 Lucio Fulci / 斯特诺 Steno
◎主  演 阿尔贝托·索尔迪 Alberto Sordi
      弗兰卡·瓦莱里 Franca Valeri
      Anna Maria Pancani
      卢恰诺·萨尔切 Luciano Salce
      Nietta Zocchi
      Marco Tulli
      马里奥·西莱蒂 Mario Siletti
      Nicoletta Orsomando
      Nanda Primavera
      Georges Bréhat
      Giusi Raspani Dandolo
      梅莫·卡罗泰努托 Memmo Carotenuto
      佩皮诺·德·菲利波 Peppino De Filippo
      温琴佐·塔拉里科 Vincenzo Talarico
      Silvio Bagolini

◎简  介

  暂无相关剧情介绍

Video
ID : 1
Format : AVC
Format/Info : Advanced Video Codec
Format profile : [email protected]
Format settings : CABAC / 4 Ref Frames
Format settings, CABAC : Yes
Format settings, Reference frames : 4 frames
Codec ID : V_MPEG4/ISO/AVC
Duration : 1 h 34 min
Bit rate mode : Constant
Bit rate : 10 000 kb/s
Width : 1 440 pixels
Height : 1 080 pixels
Display aspect ratio : 4:3
Frame rate mode : Constant
Frame rate : 25.000 FPS
Color space : YUV
Chroma subsampling : 4:2:0
Bit depth : 8 bits
Scan type : Progressive
Bits/(Pixel*Frame) : 0.257
Stream size : 6.57 GiB (98%)
Language : Italian
Default : Yes
Forced : No
Color range : Limited
Color primaries : BT.709
Transfer characteristics : BT.709
Matrix coefficients : BT.709

Audio
ID : 2
Format : E-AC-3
Format/Info : Enhanced AC-3
Commercial name : Dolby Digital Plus
Codec ID : A_EAC3
Duration : 1 h 34 min
Bit rate mode : Constant
Bit rate : 224 kb/s
Channel(s) : 2 channels
Channel layout : L R
Sampling rate : 48.0 kHz
Frame rate : 31.250 FPS (1536 SPF)
Compression mode : Lossy
Stream size : 152 MiB (2%)
Language : Italian
Service kind : Complete Main
Default : Yes
Forced : No

Text #1
ID : 3
Format : UTF-8
Codec ID : S_TEXT/UTF8
Codec ID/Info : UTF-8 Plain Text
Duration : 1 h 32 min
Bit rate : 83 b/s
Count of elements : 1366
Stream size : 56.6 KiB (0%)
Language : English
Default : Yes
Forced : No

Text #2
ID : 4
Format : UTF-8
Codec ID : S_TEXT/UTF8
Codec ID/Info : UTF-8 Plain Text
Duration : 1 h 32 min
Bit rate : 92 b/s
Count of elements : 1424
Stream size : 62.8 KiB (0%)
Language : Spanish
Default : No
Forced : No

Text #3
ID : 5
Format : UTF-8
Codec ID : S_TEXT/UTF8
Codec ID/Info : UTF-8 Plain Text
Duration : 1 h 32 min
Bit rate : 93 b/s
Count of elements : 1372
Stream size : 63.3 KiB (0%)
Language : French
Default : No
Forced : No

Menu
00:00:00.080 : it:01. Titoli
00:03:26.000 : it:02. Lady Eva
00:09:52.000 : it:03. Colpo di fulmine
00:15:30.000 : it:04. \"Piccola Posta\"
00:18:18.000 : it:05. Il vigile
00:28:34.000 : it:06. Aspirante diva
00:31:04.000 : it:07. Il veterinario
00:40:54.000 : it:08. Rodolfo Vanzino
00:44:48.000 : it:09. \"Casa del Gaudio\"
00:50:10.000 : it:10. La contessa
00:56:54.000 : it:11. \"Sussurratelo a Lady Eva\"
01:02:36.000 : it:12. L\'affare
01:07:12.000 : it:13. La vecchia
01:18:34.000 : it:14. L\'istituto per cani
01:26:16.000 : it:15. Al commissariato
01:32:58.000 : it:16. Epilogo





1 个附件 售价 大小 下载 时间

Piccola.Posta.1955.ITALIAN.1080p.AMZN.WEBRip.DD2.0.x264-SbR.torrent 0 金币 34.23K 196 次 1月前

#1楼
发帖时间:2021-06-13 19:02:43   |   回复数:0
游客组