原生系统
一派掌门

[2022] [大陆] [剧情] [打包] [BT下载][风起陇西 The Wind Blows From Longxi][全24集][国语中字][WEB/MP4][4K][Vampire][无水印普码]

-->


◎片  名 风起陇西

◎译  名 The Wind Blows From Longxi

◎年  代 2022

◎产  地 中国大陆

◎类  别 剧情 / 悬疑 / 历史 / 古装

◎语  言 汉语普通话

◎上映日期 2022-04-27(中国大陆)

◎IMDb链接 https://www.imdb.com/title/tt14521046

◎豆瓣评分 7.9/10 (45373人评价)

◎豆瓣链接 https://movie.douban.com/subject/26766214

◎集  数 24

◎片  长 48分钟

◎导  演 路阳 Yang Lu (id:1321200)

◎编  剧 金海曙 Haishu Jin (id:1328467)

       金昱 Jin Yu  (id:1464201)

       马伯庸 Marberionius (id:1354366)

◎演  员 陈坤 Kun Chen (id:1053618)

       白宇 Yu Bai (id:1337887)

       聂远 Yuan Nie (id:1275718)

       尹铸胜 Zhusheng Yin (id:1313561)

       常远 Yuan Chang (id:1327084)

       杨颖 Angelababy (id:1033011)

       孙怡 Yi Sun (id:1346566)

       俞灏明 Haoming Yu (id:1317315)

       王骁 Xiao Wang (id:1314222)

       杨轶 Yi Yang (id:1342478)

       张晓晨 Xiaochen Zhang (id:1315048)

       董子健 Zijian Dong (id:1330472)

       郭京飞 Jingfei Guo (id:1274663)

       李光洁 Guangjie Li (id:1275178)

       刘亭作 Tingzuo Liu (id:1326377)

       赵峥 Zheng Zhao (id:1274909)

       从瑞麟 Ruilin Cong (id:1455697)

       张戈 Ge Zhang (id:1322897)

       侯玮涛 Weitao Hou (id:1455698)

       彭义程 Yicheng Peng (id:1371124)

       陈凯文 Kaiwen Chen (id:1455699)

       强巴才丹 Jampa Tseten (id:1344528)

       张宁 Ning Zhang (id:1410503)

       龚宇 Yu Gong (id:1406734)


◎简  介


  天下三分,烽火四起,在这个英雄辈出的时代,战争不仅有刀光剑影,亦不只是血肉搏杀。秘密情报线上的生死角逐,正涌动于滚滚洪流的阴影当中。                                    

       两个不被乱世聚焦的“小人物”——陈恭(陈坤 饰)与荀诩(白宇 饰),他们生死相依的兄弟情在惊心动魄的谍战中爆发出夺目光辉,谱写出一段英雄传奇。


General


Complete name               : 风起陇西.The.Wind.Blows.From.Longxi.2022.EP01.4K.WEB-DL.H265.AAC-Vampire.mp4

Format                      : MPEG-4

Format profile              : Base Media

Codec ID                    : isom (isom/iso2/mp41)

File size                   : 1.39 GiB

Duration                    : 48 min 3 s

Overall bit rate            : 4 136 kb/s

Movie name                  : 风起陇西.The.Wind.Blows.From.Longxi

Album                       : 国产电视剧系列

Performer                   : Vampire制作分享作品

Genre                       : 中国大陆

Recorded date               : 2022

Comment                     : 警告:严禁将任何作品用于商业性质活动,所有制作作品仅限于测试宽带之用,请于下载后24小时内删除。本人不承担任何法律后果!喜欢本作品请购买正版!!!


Video


ID                          : 1

Format                      : HEVC

Format/Info                 : High Efficiency Video Coding

Format profile              : [email protected]@Main

Codec ID                    : hev1

Codec ID/Info               : High Efficiency Video Coding

Duration                    : 48 min 3 s

Bit rate                    : 3 938 kb/s

Width                       : 3 840 pixels

Height                      : 1 616 pixels

Display aspect ratio        : 2.40:1

Frame rate mode             : Constant

Frame rate                  : 25.000 FPS

Color space                 : YUV

Chroma subsampling          : 4:2:0

Bit depth                   : 8 bits

Bits/(Pixel*Frame)          : 0.025

Stream size                 : 1.32 GiB (95%)

Codec configuration box     : hvcC


Audio


ID                          : 2

Format                      : AAC LC

Format/Info                 : Advanced Audio Codec Low Complexity

Codec ID                    : mp4a-40-2

Duration                    : 48 min 3 s

Bit rate mode               : Constant

Bit rate                    : 192 kb/s

Channel(s)                  : 2 channels

Channel layout              : L R

Sampling rate               : 44.1 kHz

Frame rate                  : 43.066 FPS (1024 SPF)

Compression mode            : Lossy

Stream size                 : 65.2 MiB (5%)

Title                       : AAC

Default                     : Yes


本人发布的种子请使用专业BT下载工具:

UT,Bitcomet,qBittorrent,Xdown开启上传后再下载!!!

使用迅雷或网盘离线可能会没速度!!!


视频的网盘资源均在视频后缀(如mp4或mkv)后又跟随了.xy(mp4.xy或mkv.xy)用以混淆官方视听!
并且加密了文件名,设置了独有的解压密码,请使用WinRAR解压,使用好压或其他可能会出错!
已完结剧集不再分集打包上传,整体打包后分卷,无法单独下载某一集,需要全部下载后一起解压,敬请知晓!
请各位下载的坛友先保存至自己的网盘,然后再进行下载!!!
不要直接在线观看或者解压,否则会很快被网盘官方发觉并和谐!

网盘版资源一旦和谐,皆不会免费补档,请谨慎举报资源!!!


请下载完成的朋友自觉做种一段时间,小水管出种不易,且下且珍惜,谢谢!!!


解压请使用官方原版WinRAR,使用破解版或者好压等软件可能会出错,感谢所有赞赏的朋友!!!


1 个附件 售价 大小 下载 时间

风起陇西.The.Wind.Blows.From.Longxi.2022.Complete.4K.WEB-DL.H265.AAC-Vampire.rar 0 金币 1.38M 31788 次 17天前

#1楼
发帖时间:2022-05-09 15:31:24   |   回复数:9
kola13
武林盟主
感谢分享
17天前 #2楼
Jasongreat
武林盟主
让我最感兴趣的还是这个压制组
17天前 #3楼
原生系统
一派掌门
引用 Jasongreat:

让我最感兴趣的还是这个压制组

这个是个人的种,不是压制组的种。

压制小组一般都隶属于某个网站,所以他们的种子里一般都会含有附属网站的网址信息(非公开的PT站点除外,例如:HDCTV,M-Team,Ourbits等)。

16天前 #4楼
liyouchai
隐世仙人♂
谢谢楼主分享资源
15天前 #5楼
爱思考2018
小有名气
引用 Jasongreat:

让我最感兴趣的还是这个压制组

我看过Vampire大佬和其他压制组合作做源的。比如破茧和约定时期爱上你


14天前 #6楼
budong1682008
武林高手
引用 爱思考2018:

我看过Vampire大佬和其他压制组合作做源的。比如破茧和约定时期爱上你


楼主就是Vampire大佬!

12天前 #7楼
爱思考2018
小有名气
引用 budong1682008:

楼主就是Vampire大佬!

不清楚,如果他是希望把林一那部剧给重新做一下种子

10天前 #8楼
椥風
小有名气
这个片源,最开始的片头有没有字幕,显示个人测试这样的字?
10天前 #9楼
原生系统
一派掌门
引用 椥風:

这个片源,最开始的片头有没有字幕,显示个人测试这样的字?

凡是标记“X语X字”的版本均无任何水印和个人测试这样的字样!

标记“X语软字幕”可能才会有“XX人制作分享”等字样,但是由于此字幕可以选择关闭或者不显示,所以有无此字样其实并无关系。

9天前 #10楼
游客组