squallzhao
武林盟主

[更 早] [其他] [动作] [WEB-1080P] 格罗姆少校:瘟疫医生 Major.Grom.Plague.Doctor.2021.RUSSIAN.1080p.NF.WEBRip.DDP5.1.x264-ENI

-->

帖子完整标题:格罗姆少校:瘟疫医生 Major.Grom.Plague.Doctor.2021.RUSSIAN.1080p.NF.WEBRip.DDP5.1.x264-ENIAHD 6.14GB



◎译  名 格罗姆少校:瘟疫医生/Major Grom: Plague Doctor/Mayor Grom: Chumnoy Doktor
◎片  名 Майор Гром: Чумной Доктор
◎年  代 2021
◎产  地 俄罗斯
◎类  别 动作 / 科幻 / 犯罪
◎语  言 俄语
◎上映日期 2021-04-01(俄罗斯)
◎豆瓣评分 /10 from 0 users
◎豆瓣链接 https://movie.douban.com/subject/35215069/
◎片  长 120分钟
◎导  演 奥列格·特罗费姆 Oleg Trofim
◎主  演 柳波芙·阿克肖诺娃 Lyubov Aksyonova
      Aleksey Maklakov
      Dmitrii Chebotarev
      奥列格·楚古诺夫 Oleg Chugunov
      米哈伊尔·埃夫拉诺夫 Mikhail Evlanov

◎标  签 俄罗斯 | 科幻 | 2020

◎简  介

  Майор полиции Игорь Гром известен всему Санкт-Петербургу своим пробивным характером и непримиримой позицией по отношению к преступникам всех мастей. Неимоверная сила, аналитический склад ума и неподкупность — всё это делает майора Грома идеальным полицейским, не знающим преград. Но всё резко меняется с появлением человека в маске Чумного Доктора. Заявив, что его город ?болен чумой беззакония?, он принимается за ?лечение?, убивая людей, которые в своё время ушли от наказания при помощи денег и высокого статуса в обществе. Общество взбудоражено. Полиция бессильна. Игорь впервые сталкивается с трудностями в расследовании, от итогов которого может зависеть судьба всего города…

Video
ID : 1
Format : AVC
Format/Info : Advanced Video Codec
Format profile : [email protected]
Format settings : CABAC / 3 Ref Frames
Format settings, CABAC : Yes
Format settings, Reference frames : 3 frames
Codec ID : V_MPEG4/ISO/AVC
Duration : 2 h 16 min
Bit rate mode : Variable
Bit rate : 5 800 kb/s
Maximum bit rate : 8 700 kb/s
Width : 1 920 pixels
Height : 1 080 pixels
Display aspect ratio : 16:9
Frame rate mode : Constant
Frame rate : 24.000 FPS
Color space : YUV
Chroma subsampling : 4:2:0
Bit depth : 8 bits
Scan type : Progressive
Bits/(Pixel*Frame) : 0.117
Stream size : 5.52 GiB (90%)
Writing library : x264 core 148 r2722 1b0121b
Encoding settings : cabac=1 / ref=3 / deblock=1:0:0 / analyse=0x1:0x111 / me=umh / subme=10 / psy=1 / psy_rd=1.00:0.00 / mixed_ref=1 / me_range=24 / chroma_me=1 / trellis=2 / 8x8dct=0 / cqm=0 / deadzone=21,11 / fast_pskip=1 / chroma_qp_offset=-2 / threads=8 / lookahead_threads=1 / sliced_threads=0 / nr=0 / decimate=1 / interlaced=0 / bluray_compat=0 / stitchable=1 / constrained_intra=0 / bframes=2 / b_pyramid=0 / b_adapt=2 / b_bias=0 / direct=3 / weightb=1 / open_gop=0 / weightp=2 / keyint=250 / keyint_min=24 / scenecut=0 / intra_refresh=0 / rc_lookahead=48 / rc=2pass / mbtree=1 / bitrate=5800 / ratetol=1.0 / qcomp=0.50 / qpmin=6 / qpmax=51 / qpstep=4 / cplxblur=20.0 / qblur=0.5 / vbv_maxrate=8700 / vbv_bufsize=11600 / nal_hrd=vbr / filler=0 / ip_ratio=1.40 / aq=1:1.00
Default : Yes
Forced : No

Audio
ID : 2
Format : E-AC-3
Format/Info : Enhanced AC-3
Commercial name : Dolby Digital Plus
Codec ID : A_EAC3
Duration : 2 h 16 min
Bit rate mode : Constant
Bit rate : 640 kb/s
Channel(s) : 6 channels
Channel layout : L R C LFE Ls Rs
Sampling rate : 48.0 kHz
Frame rate : 31.250 FPS (1536 SPF)
Compression mode : Lossy
Stream size : 625 MiB (10%)
Language : Russian
Service kind : Complete Main
Default : Yes
Forced : No

Text #1
ID : 3
Format : UTF-8
Codec ID : S_TEXT/UTF8
Codec ID/Info : UTF-8 Plain Text
Duration : 2 h 8 min
Bit rate : 83 b/s
Count of elements : 1637
Stream size : 78.7 KiB (0%)
Language : Russian
Default : No
Forced : No

Text #2
ID : 4
Format : UTF-8
Codec ID : S_TEXT/UTF8
Codec ID/Info : UTF-8 Plain Text
Duration : 2 h 8 min
Bit rate : 51 b/s
Count of elements : 1756
Stream size : 48.2 KiB (0%)
Language : English
Default : No
Forced : No





1 个附件 售价 大小 下载 时间

Major.Grom.Plague.Doctor.2021.RUSSIAN.1080p.NF.WEBRip.DDP5.1.x264-ENIAHD.torrent 0 金币 31.34K 798 次 4天前

#1楼
发帖时间:2021-06-11 23:20:33   |   回复数:0
游客组