squallzhao
武林盟主

[更 早] [其他] [动作] [BD-Remux] 哥斯拉大战金刚 Godzilla.vs.Kong.2021.1080p.BluRay.REMUX.AVC.DTS-HD.MA.TrueHD.7.1.Atmos-

-->

帖子完整标题:哥斯拉大战金刚 Godzilla.vs.Kong.2021.1080p.BluRay.REMUX.AVC.DTS-HD.MA.TrueHD.7.1.Atmos-FGT 31.95GB



◎译  名 哥斯拉大战金刚/GvK/King Kong vs. Godzilla/哥吉拉大战金刚(台)/金刚大战哥斯拉
◎片  名 Godzilla vs Kong
◎年  代 2021
◎产  地 美国,澳大利亚,加拿大,印度
◎类  别 动作 / 科幻 / 冒险
◎语  言 英语,美国手语
◎上映日期 2021-03-24(中国台湾) / 2021-03-26(中国大陆) / 2021-03-31(美国)
◎豆瓣评分 6.4/10 from 223594 users
◎豆瓣链接 https://movie.douban.com/subject/26613692/
◎片  长 113分钟
◎导  演 亚当·温加德 Adam Wingard
◎编  剧 特里·鲁西奥 Terry Rossio / 埃里克·皮尔森 Eric Pearson / 麦克思·鲍伦斯坦 Max Borenstein / 迈克尔·道赫蒂 Michael Dougherty / 扎克·希尔兹 Zach Shields
◎主  演 亚历山大·斯卡斯加德 Alexander Skarsg?rd
      米莉·波比·布朗 Millie Bobby Brown
      丽贝卡·豪尔 Rebecca Hall
      凯莉·霍特尔 Kaylee Hottle
      布莱恩·泰里·亨利 Brian Tyree Henry
      小栗旬 Shun Oguri
      艾莎·冈萨雷斯 Eiza González
      朱利安·迪尼森 Julian Dennison
      兰斯·莱迪克 Lance Reddick
      凯尔·钱德勒 Kyle Chandler
      德米安·比齐尔 Demián Bichir
      哈基姆·凯-卡西姆 Hakeem Kae-Kazim
      钱信伊 Ronny Chieng
      约翰·皮鲁切洛 John Pirruccello
      克里斯·乔克 Chris Chalk
      康兰·卡萨尔 Conlan Casal
      布拉德·麦克默里 Brad McMurray
      本杰明·里格比 Benjamin Rigby
      普里西拉·道伊西 Priscilla Doueihy
      戴维·卡斯蒂洛 David Castillo
      吉姆·帕尔默 Jim Palmer
      柯蒂斯·布什 Curtis Bush
      皮拉·福德 Piéra Forde
      爱丽丝·兰斯伯里 Alice Lanesbury
      肖恩·麦克布莱德 Shawn McBride
      乔尔·皮尔斯 Joel Pierce
      乔恩·奎斯蒂德 Jon Quested
      塔斯尼姆·罗克 Tasneem Roc
      艾梅伯·瓦尔斯 Amber Walls
      迪索·拉莫斯 Diezel Ramos
      田中圭 Kei Tanaka
      渡边谦 Ken Watanabe

◎标  签 怪兽 | 哥斯拉 | 科幻 | 金刚 | 美国 | 动作 | 2021 | 奇幻

◎简  介

  这两位宛如神衹一般强大的对手于一场壮观的战争中相遇,彼时世界命运正悬于一线。为了找到真正的家园,金刚与他的保护者们踏上了一次艰难的旅程。与他们一道前行的还有一个年轻的孤儿女孩——吉雅,这个女孩与金刚之间存在着一种独特而强大的紧密联系。但意想不到的是,他们在前行的航道上与愤怒的哥斯拉狭路相逢,也由此在全球引起了一系列破坏。一股无形的力量造成了这两只巨兽之间的巨大冲突,深藏在地心深处的奥秘也由此揭开。

Video
ID : 1
ID in the original source medium : 4113 (0x1011)
Format : AVC
Format/Info : Advanced Video Codec
Format profile : [email protected]
Format settings : CABAC / 2 Ref Frames
Format settings, CABAC : Yes
Format settings, Reference frames : 2 frames
Format settings, GOP : M=1, N=10
Codec ID : V_MPEG4/ISO/AVC
Duration : 1 h 53 min
Bit rate mode : Variable
Bit rate : 25.9 Mb/s
Width : 1 920 pixels
Height : 1 080 pixels
Display aspect ratio : 16:9
Frame rate mode : Constant
Frame rate : 23.976 (24000/1001/189150) FPS
Color space : YUV
Chroma subsampling : 4:2:0
Bit depth : 8 bits
Scan type : Progressive
Bits/(Pixel*Frame) : 0.522
Stream size : 20.5 GiB (64%)
Language : English
Default : No
Forced : No
Original source medium : Blu-ray

Audio #1
ID : 2
ID in the original source medium : 4352 (0x1100)
Format : MLP FBA 16-ch
Format/Info : Meridian Lossless Packing FBA with 16-channel presentation
Commercial name : Dolby TrueHD with Dolby Atmos
Codec ID : A_TRUEHD
Duration : 1 h 53 min
Bit rate mode : Variable
Bit rate : 3 455 kb/s
Maximum bit rate : 5 742 kb/s
Channel(s) : 8 channels
Channel layout : L R C LFE Ls Rs Lb Rb
Sampling rate : 48.0 kHz
Frame rate : 1 200.000 FPS (40 SPF)
Bit depth : 24 bits
Compression mode : Lossless
Stream size : 2.73 GiB (9%)
Title : TrueHD 7.1 Atmos
Language : English
Default : Yes
Forced : No
Original source medium : Blu-ray
Number of dynamic objects : 11
Bed channel count : 1 channel
Bed channel configuration : LFE

Audio #2
ID : 3
Format : DTS XLL
Format/Info : Digital Theater Systems
Commercial name : DTS-HD Master Audio
Codec ID : A_DTS
Duration : 1 h 53 min
Bit rate mode : Variable
Bit rate : 3 810 kb/s
Channel(s) : 8 channels
Channel layout : C L R LFE Lb Rb Lss Rss
Sampling rate : 48.0 kHz
Frame rate : 93.750 FPS (512 SPF)
Bit depth : 24 bits
Compression mode : Lossless
Stream size : 3.01 GiB (9%)
Title : DTS-HD MA 7.1
Language : English
Default : No
Forced : No

Audio #3
ID : 4
ID in the original source medium : 4352 (0x1100)
Format : AC-3
Format/Info : Audio Coding 3
Commercial name : Dolby Digital
Format settings : Dolby Surround EX
Codec ID : A_AC3
Duration : 1 h 53 min
Bit rate mode : Constant
Bit rate : 448 kb/s
Channel(s) : 6 channels
Channel layout : L R C LFE Ls Rs
Sampling rate : 48.0 kHz
Frame rate : 31.250 FPS (1536 SPF)
Compression mode : Lossy
Stream size : 363 MiB (1%)
Title : DD5.1
Language : English
Service kind : Complete Main
Default : No
Forced : No
Original source medium : Blu-ray

Audio #4
ID : 5
ID in the original source medium : 4353 (0x1101)
Format : AC-3
Format/Info : Audio Coding 3
Commercial name : Dolby Digital
Codec ID : A_AC3
Duration : 1 h 53 min
Bit rate mode : Constant
Bit rate : 640 kb/s
Channel(s) : 6 channels
Channel layout : L R C LFE Ls Rs
Sampling rate : 48.0 kHz
Frame rate : 31.250 FPS (1536 SPF)
Compression mode : Lossy
Stream size : 518 MiB (2%)
Title : DD5.1
Language : English
Service kind : Complete Main
Default : No
Forced : No
Original source medium : Blu-ray

Audio #5
ID : 6
ID in the original source medium : 4354 (0x1102)
Format : AC-3
Format/Info : Audio Coding 3
Commercial name : Dolby Digital
Codec ID : A_AC3
Duration : 1 h 53 min
Bit rate mode : Constant
Bit rate : 640 kb/s
Channel(s) : 6 channels
Channel layout : L R C LFE Ls Rs
Sampling rate : 48.0 kHz
Frame rate : 31.250 FPS (1536 SPF)
Compression mode : Lossy
Stream size : 518 MiB (2%)
Title : DD5.1
Language : English
Service kind : Complete Main
Default : No
Forced : No
Original source medium : Blu-ray

Audio #6
ID : 7
ID in the original source medium : 4355 (0x1103)
Format : AC-3
Format/Info : Audio Coding 3
Commercial name : Dolby Digital
Codec ID : A_AC3
Duration : 1 h 53 min
Bit rate mode : Constant
Bit rate : 640 kb/s
Channel(s) : 6 channels
Channel layout : L R C LFE Ls Rs
Sampling rate : 48.0 kHz
Frame rate : 31.250 FPS (1536 SPF)
Compression mode : Lossy
Stream size : 518 MiB (2%)
Title : DD5.1
Language : Italian
Service kind : Complete Main
Default : No
Forced : No
Original source medium : Blu-ray

Audio #7
ID : 8
ID in the original source medium : 4356 (0x1104)
Format : AC-3
Format/Info : Audio Coding 3
Commercial name : Dolby Digital
Codec ID : A_AC3
Duration : 1 h 53 min
Bit rate mode : Constant
Bit rate : 640 kb/s
Channel(s) : 6 channels
Channel layout : L R C LFE Ls Rs
Sampling rate : 48.0 kHz
Frame rate : 31.250 FPS (1536 SPF)
Compression mode : Lossy
Stream size : 518 MiB (2%)
Title : DD5.1
Language : Spanish
Service kind : Complete Main
Default : No
Forced : No
Original source medium : Blu-ray

Audio #8
ID : 9
ID in the original source medium : 4357 (0x1105)
Format : AC-3
Format/Info : Audio Coding 3
Commercial name : Dolby Digital
Codec ID : A_AC3
Duration : 1 h 53 min
Bit rate mode : Constant
Bit rate : 640 kb/s
Channel(s) : 6 channels
Channel layout : L R C LFE Ls Rs
Sampling rate : 48.0 kHz
Frame rate : 31.250 FPS (1536 SPF)
Compression mode : Lossy
Stream size : 518 MiB (2%)
Title : DD5.1
Language : Czech
Service kind : Complete Main
Default : No
Forced : No
Original source medium : Blu-ray

Audio #9
ID : 10
ID in the original source medium : 4358 (0x1106)
Format : AC-3
Format/Info : Audio Coding 3
Commercial name : Dolby Digital
Codec ID : A_AC3
Duration : 1 h 53 min
Bit rate mode : Constant
Bit rate : 640 kb/s
Channel(s) : 6 channels
Channel layout : L R C LFE Ls Rs
Sampling rate : 48.0 kHz
Frame rate : 31.250 FPS (1536 SPF)
Compression mode : Lossy
Stream size : 518 MiB (2%)
Title : DD5.1
Language : Hindi
Service kind : Complete Main
Default : No
Forced : No
Original source medium : Blu-ray

Audio #10
ID : 11
ID in the original source medium : 4359 (0x1107)
Format : AC-3
Format/Info : Audio Coding 3
Commercial name : Dolby Digital
Codec ID : A_AC3
Duration : 1 h 53 min
Bit rate mode : Constant
Bit rate : 640 kb/s
Channel(s) : 6 channels
Channel layout : L R C LFE Ls Rs
Sampling rate : 48.0 kHz
Frame rate : 31.250 FPS (1536 SPF)
Compression mode : Lossy
Stream size : 518 MiB (2%)
Title : DD5.1
Language : Hungarian
Service kind : Complete Main
Default : No
Forced : No
Original source medium : Blu-ray

Audio #11
ID : 12
ID in the original source medium : 4360 (0x1108)
Format : AC-3
Format/Info : Audio Coding 3
Commercial name : Dolby Digital
Codec ID : A_AC3
Duration : 1 h 53 min
Bit rate mode : Constant
Bit rate : 640 kb/s
Channel(s) : 6 channels
Channel layout : L R C LFE Ls Rs
Sampling rate : 48.0 kHz
Frame rate : 31.250 FPS (1536 SPF)
Compression mode : Lossy
Stream size : 518 MiB (2%)
Title : DD5.1
Language : Polish
Service kind : Complete Main
Default : No
Forced : No
Original source medium : Blu-ray

Audio #12
ID : 13
ID in the original source medium : 4361 (0x1109)
Format : AC-3
Format/Info : Audio Coding 3
Commercial name : Dolby Digital
Codec ID : A_AC3
Duration : 1 h 53 min
Bit rate mode : Constant
Bit rate : 640 kb/s
Channel(s) : 6 channels
Channel layout : L R C LFE Ls Rs
Sampling rate : 48.0 kHz
Frame rate : 31.250 FPS (1536 SPF)
Compression mode : Lossy
Stream size : 518 MiB (2%)
Title : DD5.1
Language : Tamil
Service kind : Complete Main
Default : No
Forced : No
Original source medium : Blu-ray

Audio #13
ID : 14
ID in the original source medium : 4362 (0x110A)
Format : AC-3
Format/Info : Audio Coding 3
Commercial name : Dolby Digital
Codec ID : A_AC3
Duration : 1 h 53 min
Bit rate mode : Constant
Bit rate : 640 kb/s
Channel(s) : 6 channels
Channel layout : L R C LFE Ls Rs
Sampling rate : 48.0 kHz
Frame rate : 31.250 FPS (1536 SPF)
Compression mode : Lossy
Stream size : 518 MiB (2%)
Title : DD5.1
Language : Telugu
Service kind : Complete Main
Default : No
Forced : No
Original source medium : Blu-ray

Audio #14
ID : 15
ID in the original source medium : 4363 (0x110B)
Format : AC-3
Format/Info : Audio Coding 3
Commercial name : Dolby Digital
Format settings : Dolby Surround
Codec ID : A_AC3
Duration : 1 h 53 min
Bit rate mode : Constant
Bit rate : 192 kb/s
Channel(s) : 2 channels
Channel layout : L R
Sampling rate : 48.0 kHz
Frame rate : 31.250 FPS (1536 SPF)
Compression mode : Lossy
Stream size : 155 MiB (0%)
Title : DD 2.0
Language : English
Service kind : Complete Main
Default : No
Forced : No
Original source medium : Blu-ray

Text #1
ID : 16
Format : UTF-8
Codec ID : S_TEXT/UTF8
Codec ID/Info : UTF-8 Plain Text
Duration : 1 h 45 min
Bit rate : 37 b/s
Count of elements : 923
Stream size : 28.7 KiB (0%)
Title : SRT
Language : English
Default : Yes
Forced : No

Text #2
ID : 17
ID in the original source medium : 4608 (0x1200)
Format : PGS
Muxing mode : zlib
Codec ID : S_HDMV/PGS
Codec ID/Info : Picture based subtitle format used on BDs/HD-DVDs
Duration : 1 h 45 min
Bit rate : 31.2 kb/s
Count of elements : 2707
Stream size : 23.7 MiB (0%)
Language : English
Default : No
Forced : No
Original source medium : Blu-ray

Text #3
ID : 18
ID in the original source medium : 4609 (0x1201)
Format : PGS
Muxing mode : zlib
Codec ID : S_HDMV/PGS
Codec ID/Info : Picture based subtitle format used on BDs/HD-DVDs
Duration : 1 h 45 min
Bit rate : 31.6 kb/s
Count of elements : 2866
Stream size : 23.9 MiB (0%)
Language : Italian
Default : No
Forced : No
Original source medium : Blu-ray

Text #4
ID : 19
ID in the original source medium : 4610 (0x1202)
Format : PGS
Muxing mode : zlib
Codec ID : S_HDMV/PGS
Codec ID/Info : Picture based subtitle format used on BDs/HD-DVDs
Duration : 1 h 52 min
Bit rate : 21.0 kb/s
Count of elements : 1732
Stream size : 16.9 MiB (0%)
Language : Spanish
Default : No
Forced : No
Original source medium : Blu-ray

Text #5
ID : 20
ID in the original source medium : 4611 (0x1203)
Format : PGS
Muxing mode : zlib
Codec ID : S_HDMV/PGS
Codec ID/Info : Picture based subtitle format used on BDs/HD-DVDs
Duration : 1 h 44 min
Bit rate : 23.1 kb/s
Count of elements : 1740
Stream size : 17.3 MiB (0%)
Language : Chinese
Default : No
Forced : No
Original source medium : Blu-ray

Text #6
ID : 21
ID in the original source medium : 4612 (0x1204)
Format : PGS
Muxing mode : zlib
Codec ID : S_HDMV/PGS
Codec ID/Info : Picture based subtitle format used on BDs/HD-DVDs
Duration : 1 h 52 min
Bit rate : 19.0 kb/s
Count of elements : 1794
Stream size : 15.2 MiB (0%)
Language : Chinese
Default : No
Forced : No
Original source medium : Blu-ray

Text #7
ID : 22
ID in the original source medium : 4613 (0x1205)
Format : PGS
Muxing mode : zlib
Codec ID : S_HDMV/PGS
Codec ID/Info : Picture based subtitle format used on BDs/HD-DVDs
Duration : 1 h 44 min
Bit rate : 13.9 kb/s
Count of elements : 1746
Stream size : 10.4 MiB (0%)
Language : Korean
Default : No
Forced : No
Original source medium : Blu-ray

Text #8
ID : 23
ID in the original source medium : 4614 (0x1206)
Format : PGS
Muxing mode : zlib
Codec ID : S_HDMV/PGS
Codec ID/Info : Picture based subtitle format used on BDs/HD-DVDs
Duration : 1 h 52 min
Bit rate : 21.1 kb/s
Count of elements : 1786
Stream size : 17.0 MiB (0%)
Language : Bulgarian
Default : No
Forced : No
Original source medium : Blu-ray

Text #9
ID : 24
ID in the original source medium : 4615 (0x1207)
Format : PGS
Muxing mode : zlib
Codec ID : S_HDMV/PGS
Codec ID/Info : Picture based subtitle format used on BDs/HD-DVDs
Duration : 1 h 52 min
Bit rate : 19.7 kb/s
Count of elements : 1752
Stream size : 15.8 MiB (0%)
Language : Czech
Default : No
Forced : No
Original source medium : Blu-ray

Text #10
ID : 25
ID in the original source medium : 4616 (0x1208)
Format : PGS
Muxing mode : zlib
Codec ID : S_HDMV/PGS
Codec ID/Info : Picture based subtitle format used on BDs/HD-DVDs
Duration : 1 h 52 min
Bit rate : 18.1 kb/s
Count of elements : 1296
Stream size : 14.5 MiB (0%)
Language : Danish
Default : No
Forced : No
Original source medium : Blu-ray

Text #11
ID : 26
ID in the original source medium : 4617 (0x1209)
Format : PGS
Muxing mode : zlib
Codec ID : S_HDMV/PGS
Codec ID/Info : Picture based subtitle format used on BDs/HD-DVDs
Duration : 1 h 52 min
Bit rate : 20.9 kb/s
Count of elements : 1820
Stream size : 16.8 MiB (0%)
Language : Finnish
Default : No
Forced : No
Original source medium : Blu-ray

Text #12
ID : 27
ID in the original source medium : 4618 (0x120A)
Format : PGS
Muxing mode : zlib
Codec ID : S_HDMV/PGS
Codec ID/Info : Picture based subtitle format used on BDs/HD-DVDs
Duration : 1 h 52 min
Bit rate : 21.1 kb/s
Count of elements : 1762
Stream size : 17.0 MiB (0%)
Language : Greek
Default : No
Forced : No
Original source medium : Blu-ray

Text #13
ID : 28
ID in the original source medium : 4619 (0x120B)
Format : PGS
Muxing mode : zlib
Codec ID : S_HDMV/PGS
Codec ID/Info : Picture based subtitle format used on BDs/HD-DVDs
Duration : 1 h 52 min
Bit rate : 22.1 kb/s
Count of elements : 1812
Stream size : 17.8 MiB (0%)
Language : Hungarian
Default : No
Forced : No
Original source medium : Blu-ray

Text #14
ID : 29
ID in the original source medium : 4620 (0x120C)
Format : PGS
Muxing mode : zlib
Codec ID : S_HDMV/PGS
Codec ID/Info : Picture based subtitle format used on BDs/HD-DVDs
Duration : 1 h 52 min
Bit rate : 19.3 kb/s
Count of elements : 1518
Stream size : 15.5 MiB (0%)
Language : Norwegian
Default : No
Forced : No
Original source medium : Blu-ray

Text #15
ID : 30
ID in the original source medium : 4621 (0x120D)
Format : PGS
Muxing mode : zlib
Codec ID : S_HDMV/PGS
Codec ID/Info : Picture based subtitle format used on BDs/HD-DVDs
Duration : 1 h 52 min
Bit rate : 19.1 kb/s
Count of elements : 1716
Stream size : 15.3 MiB (0%)
Language : Polish
Default : No
Forced : No
Original source medium : Blu-ray

Text #16
ID : 31
ID in the original source medium : 4622 (0x120E)
Format : PGS
Muxing mode : zlib
Codec ID : S_HDMV/PGS
Codec ID/Info : Picture based subtitle format used on BDs/HD-DVDs
Duration : 1 h 52 min
Bit rate : 22.4 kb/s
Count of elements : 1820
Stream size : 18.0 MiB (0%)
Language : Romanian
Default : No
Forced : No
Original source medium : Blu-ray

Text #17
ID : 32
ID in the original source medium : 4623 (0x120F)
Format : PGS
Muxing mode : zlib
Codec ID : S_HDMV/PGS
Codec ID/Info : Picture based subtitle format used on BDs/HD-DVDs
Duration : 1 h 52 min
Bit rate : 18.3 kb/s
Count of elements : 1400
Stream size : 14.7 MiB (0%)
Language : Swedish
Default : No
Forced : No
Original source medium : Blu-ray

Text #18
ID : 33
ID in the original source medium : 4624 (0x1210)
Format : PGS
Muxing mode : zlib
Codec ID : S_HDMV/PGS
Codec ID/Info : Picture based subtitle format used on BDs/HD-DVDs
Duration : 1 h 44 min
Bit rate : 1 590 b/s
Count of elements : 184
Stream size : 1.19 MiB (0%)
Language : Italian
Default : No
Forced : No
Original source medium : Blu-ray

Text #19
ID : 34
ID in the original source medium : 4625 (0x1211)
Format : PGS
Muxing mode : zlib
Codec ID : S_HDMV/PGS
Codec ID/Info : Picture based subtitle format used on BDs/HD-DVDs
Duration : 1 h 44 min
Bit rate : 1 718 b/s
Count of elements : 188
Stream size : 1.28 MiB (0%)
Language : Spanish
Default : No
Forced : No
Original source medium : Blu-ray

Text #20
ID : 35
ID in the original source medium : 4626 (0x1212)
Format : PGS
Muxing mode : zlib
Codec ID : S_HDMV/PGS
Codec ID/Info : Picture based subtitle format used on BDs/HD-DVDs
Duration : 1 h 44 min
Bit rate : 1 627 b/s
Count of elements : 188
Stream size : 1.22 MiB (0%)
Language : Czech
Default : No
Forced : No
Original source medium : Blu-ray

Text #21
ID : 36
ID in the original source medium : 4627 (0x1213)
Format : PGS
Muxing mode : zlib
Codec ID : S_HDMV/PGS
Codec ID/Info : Picture based subtitle format used on BDs/HD-DVDs
Duration : 1 h 52 min
Bit rate : 1 296 b/s
Count of elements : 204
Stream size : 1.04 MiB (0%)
Language : Hindi
Default : No
Forced : No
Original source medium : Blu-ray

Text #22
ID : 37
ID in the original source medium : 4628 (0x1214)
Format : PGS
Muxing mode : zlib
Codec ID : S_HDMV/PGS
Codec ID/Info : Picture based subtitle format used on BDs/HD-DVDs
Duration : 1 h 44 min
Bit rate : 1 757 b/s
Count of elements : 186
Stream size : 1.31 MiB (0%)
Language : Hungarian
Default : No
Forced : No
Original source medium : Blu-ray

Text #23
ID : 38
ID in the original source medium : 4629 (0x1215)
Format : PGS
Muxing mode : zlib
Codec ID : S_HDMV/PGS
Codec ID/Info : Picture based subtitle format used on BDs/HD-DVDs
Duration : 1 h 52 min
Bit rate : 1 961 b/s
Count of elements : 206
Stream size : 1.58 MiB (0%)
Language : Tamil
Default : No
Forced : No
Original source medium : Blu-ray

Text #24
ID : 39
ID in the original source medium : 4630 (0x1216)
Format : PGS
Muxing mode : zlib
Codec ID : S_HDMV/PGS
Codec ID/Info : Picture based subtitle format used on BDs/HD-DVDs
Duration : 1 h 52 min
Bit rate : 1 502 b/s
Count of elements : 206
Stream size : 1.21 MiB (0%)
Language : Telugu
Default : No
Forced : No
Original source medium : Blu-ray

Menu
00:00:00.000 : Chapter 01
00:09:51.591 : Chapter 02
00:20:07.247 : Chapter 03
00:29:02.365 : Chapter 04
00:38:39.734 : Chapter 05
00:49:15.661 : Chapter 06
00:57:16.766 : Chapter 07
01:09:07.977 : Chapter 08
01:18:33.875 : Chapter 09
01:30:05.983 : Chapter 10
01:41:58.612 : Chapter 11





1 个附件 售价 大小 下载 时间

Godzilla.vs.Kong.2021.1080p.BluRay.REMUX.AVC.DTS-HD.MA.TrueHD.7.1.Atmos-FGT.torrent 0 金币 80.55K 7792 次 4天前

#1楼
发帖时间:2021-06-11 23:08:24   |   回复数:0
游客组