squallzhao
武林盟主

[更 早] [欧美] [科幻] [BD-4K] 无限/无限轮回 Infinite.2021.2160p.WEB-DL.DDP5.1.DV.x265-MZABI 11.21GB

-->

帖子完整标题:无限/无限轮回 Infinite.2021.2160p.WEB-DL.DDP5.1.DV.x265-MZABI 11.21GB



◎译  名 无限/无限轮回
◎片  名 Infinite
◎年  代 2021
◎产  地 美国
◎类  别 科幻 / 惊悚
◎语  言 英语
◎上映日期 2021-06-10(美国网络)
◎豆瓣评分 5.9/10 from 131 users
◎豆瓣链接 https://movie.douban.com/subject/30368448/
◎导  演 安东尼·福奎阿 Antoine Fuqua
◎编  剧 伊恩·肖尔 Ian Shorr / 托德·斯坦因 Todd Stein / D· 埃里克·麦克兰兹 D. Eric Maikranz / 约翰·李·汉考克 John Lee Hancock
◎主  演 马克·沃尔伯格 Mark Wahlberg
      迪伦·奥布莱恩 Dylan O'Brien
      杰森·曼楚克斯 Jason Mantzoukas
      鲁伯特·弗兰德 Rupert Friend
      索菲·库克森 Sophie Cookson
      切瓦特·埃加福 Chiwetel Ejiofor
      托比·琼斯 Toby Jones
      沃利斯·戴 Wallis Day
      汤姆·休斯 Tom Hughes
      约翰内斯·豪克尔·约翰内森 Jóhannes Haukur Jóhannesson
      加绘·亚历山大 Kae Alexander
      利兹·凯尔 Liz Carr
      乔安娜·里贝罗 Joana Ribeiro
      纳比勒·埃卢比 Nabil Elouahabi
      拉菲拉·查普曼 Raffiella Chapman
      马克·弗莱施曼 Mark Fleischmann
      乔丹·A·纳什 Jordan A. Nash
      蒂利亚纳·布克丽瓦 Dilyana Bouklieva
      利昂·阿诺 Leon Annor

◎标  签 科幻 | 马克·沃尔伯格 | 美国 | 奇幻 | 美国电影 | 惊悚 | 克里斯·埃文斯 | 改编

◎简  介

  改编自D. Eric Maikranz所著小说《转世文献》(The Rein carnationist Papers),聚焦一个被自己前两世的记忆缠绕的男子,引出一群几乎长生不死、几世纪来多次转生的人,被称为“无限/无穷之人”,他们的组织叫“Cognomina”。为了打败想毁灭地球的邪恶力量,他们必须依靠这个精神分裂的男子,而后者先要搞清楚:他常做的奇怪的梦都是前世的记忆。

Video
ID : 1
Format : HEVC
Format/Info : High Efficiency Video Coding
Format profile : Main [email protected]@High
HDR format : Dolby Vision, Version 1.0, dvhe.05.06, BL+RPU
Codec ID : dvhe
Codec ID/Info : High Efficiency Video Coding with Dolby Vision
Duration : 1 h 46 min
Bit rate : 14.4 Mb/s
Width : 3 840 pixels
Height : 2 160 pixels
Display aspect ratio : 16:9
Frame rate mode : Constant
Frame rate : 23.976 (24000/1001/189150) FPS
Color space : YUV
Chroma subsampling : 4:2:0 (Type 0)
Bit depth : 10 bits
Bits/(Pixel*Frame) : 0.073
Stream size : 10.7 GiB (96%)
Language : English
Default : Yes
Alternate group : 1
Encoded date : UTC 2021-06-10 17:57:29
Tagged date : UTC 2021-06-10 18:02:25
Color range : Full
Codec configuration box : hvcC+dvcC

Audio
ID : 2
Format : E-AC-3
Format/Info : Enhanced AC-3
Commercial name : Dolby Digital Plus
Codec ID : ac-3
Duration : 1 h 46 min
Bit rate mode : Constant
Bit rate : 640 kb/s
Maximum bit rate : 676 kb/s
Channel(s) : 6 channels
Channel layout : L R C LFE Ls Rs
Sampling rate : 48.0 kHz
Frame rate : 31.250 FPS (1536 SPF)
Compression mode : Lossy
Stream size : 487 MiB (4%)
Language : English
Service kind : Complete Main
Default : No
Alternate group : 2
Encoded date : UTC 2021-06-10 18:02:18
Tagged date : UTC 2021-06-10 18:02:25

Text #1
ID : 3
Format : Timed Text
Codec ID : tx3g
Duration : 1 h 37 min
Bit rate mode : Variable
Bit rate : 48 b/s
Stream size : 34.1 KiB (0%)
Title : English
Language : English
Forced : No
Encoded date : UTC 2021-06-10 18:02:24
Tagged date : UTC 2021-06-10 18:02:25

Text #2
ID : 4
Format : Timed Text
Codec ID : tx3g
Duration : 1 h 41 min
Bit rate mode : Variable
Bit rate : 51 b/s
Stream size : 37.9 KiB (0%)
Title : English [SDH]
Language : English
Forced : No
Encoded date : UTC 2021-06-10 18:02:24
Tagged date : UTC 2021-06-10 18:02:25





1 个附件 售价 大小 下载 时间

Infinite.2021.2160p.WEB-DL.DDP5.1.DV.x265-MZABI.torrent 0 金币 56.66K 12482 次 5天前

#1楼
发帖时间:2021-06-11 19:00:29   |   回复数:5
liyouchai
隐世仙人♂
谢谢楼主分享资源
4天前 #2楼
kola13
武林盟主
感谢分享
4天前 #3楼
chulps
一代宗师
~ 珍惜+支持 ~
3天前 #4楼
chenweibin27
武林高手
感谢楼主分享!
2天前 #5楼
OOOOO
一派掌门

❀❀❀❀

14小时前 #6楼
游客组